HD-AREA wünscht Euch eine besinnliche Weihnachtszeit ;)

DNS SERVER AENDERNum der staatlichen Zensur zu umgehen. Sollten wir von eurem Provider geseprrt werden, nutzt den TOR BROWSER oder ändert euren DNS SERVER.

Filmwünsche können bei uns im Forum abgegeben werden

Wir Speichern Nicht




 
 
 
Top Releases
Catch.Me.Tag.2018.MULTI.COMP...
Earthquake.Die.Welt.Am.Abgru...
Earthquake.Die.Welt.Am.Abgru...
Earthquake.Die.Welt.Am.Abgru...
Earthquake.Die.Welt.Am.Abgru...
Paradox.Kill.Zone.Bangkok.20...
I.Tonya.2017.German.AC3.1080...
Deine.Juliet.2018.German.DL....
Ideal.Home.2018.German.DL.10...
Ideal.Home.Ein.Vater.kommt.s...

Cinedubs
Venom.German.DL.AC3.Dubbed.1...
Venom.2018.German.AC3D.5.1.D...
Venom.2018.German.AC3D.5.1.D...
Das.krumme.Haus.2017.GERMAN....
Das.krumme.Haus.2017.GERMAN....
I.Still.See.You.Sie.lassen.d...
I.Still.See.You.Sie.lassen.d...
Braven.2018.German.AC3D.DL.1...
Braven.2018.German.AC3D.DL.7...
Smallfoot.Ein.eisigartiges.A...

Neuerscheinungen 2017-18
Catch.Me.2018.German.720p.Bl...
Catch.Me.2018.German.DL.1080...
Ghost.Town.GERMAN.1988.DL.10...
Donner.ueber.dem.Indischen.O...
Bullets.over.Broadway.1994.M...
Ghost.Town.1988.DUAL.COMPLET...
Ein.Lied.in.Gottes.Ohr.2017....
Ein.Lied.in.Gottes.Ohr.Germa...
Ein.Lied.in.Gottes.Ohr.Germa...
Meine.teuflisch.gute.Freundi...

XXX
CrowdBondage.18.12.03.Susy.G...
DesperateAmateurs.18.12.02.B...
ClaudiaMarie.18.11.25.Mr.Mar...
DateSlam.18.12.03.Kelly.Horn...
DickOnTrip.18.12.03.Black.Wh...
ConorCoxxx.18.07.13.Nadia.Wh...
CzechCasting.18.12.01.Nikol....
CreampieInAsia.18.11.30.Pon....
ConorCoxxx.18.07.20.Marica.H...
Cosmid.18.12.01.Bella.Bruni....
ConorCoxxx.18.11.23.Ashton.B...
ConorCoxxx.18.06.29.Erica.La...
ATKGirlfriends.18.12.01.Zoe....
ClubSeventeen.18.12.01.Aurel...
ConorCoxxx.18.07.06.Noelle.E...
CherryPimps.18.12.03.Ana.Fox...
DeviantAss.18.11.30.Medsion....
ConorCoxxx.18.06.01.Joseline...
ATKHairy.18.12.01.Isabel.Ste...
ConorCoxxx.18.06.22.Alexis.G...

3D
The.Art.of.Flight.3D.2011.Ge...
The.End.Of.The.World.3D.2010...
The.First.Avenger.Civil.War....
Die.Unglaublichen.2.2018.3D....
Skyscraper.3D.2018.MULTi.COM...
Ant-Man.And.The.Wasp.3D.2018...
Ant.Man.and.the.Wasp.3D.2018...
Die.Unglaublichen.2.3D.2018....
Die.Unglaublichen.2.2018.3D....
Die.Unglaublichen.2.2018.3D....
Sharknado.6.The.Last.One.3D....
Deep.Kleine.Helden.der.Tiefs...
Deep.3D.2017.MULTI.COMPLETE....
Detective.Dee.und.die.Legend...
Detective.Dee.und.die.Legend...

Old_Stuff
Akte.X.S04.German.DTS.DL.108...
Akte.X.S03.German.DTS.DL.108...
Dunkirk.1958.COMPLETE.BLURAY...
Das.Wunder.von.Manhattan.199...
The.Amazing.Spiderman.2.Rise...
Rise.of.the.Predator.2014.Ge...
Detective.Dee.und.das.Geheim...
Detective.Dee.Und.Der.Fluch....
Ghost.Rider.Spirit.of.Vengea...
Species.IV.Das.Erwachen.2007...
Species.IV.Das.Erwachen.2007...
Hotel.Transsilvanien.2012.Ge...
The.Dead.2010.German.DL.1080...
The.Dead.2.India.2013.German...
Britney.Spears.Live.The.Femm...

Filme
Swedish.Dicks.S02.GERMAN.720...
Wildlife.Vol.1.Striker.Anato...
Criminal.Minds.S13.COMPLETE....
Snatch.S02.German.DL.DUBBED....
Snatch.S02.German.DL.DUBBED....
Killjoys.S04.German.DD51.Dub...
Killjoys.S04.German.DD51.Dub...
Robin.Hood.Ein.Leben.fuer.Ri...
Ghost.Town.GERMAN.1988.DL.72...
Donner.ueber.dem.Indischen.O...
Dogs.Of.Berlin.S01.GERMAN.DL...
Dogs.Of.Berlin.S01.German.72...
Get.Shorty.S02.German.DD51.S...
Get.Shorty.S02.German.DD51.S...
Girls.Club.2.Vorsicht.bissig...
Der.Gott.des.Gemetzels.2011....
Die.Conners.S01.German.DD51....
Die.Conners.S01.German.DD51....
Shut.Eye.S01.German.DD20.DL....
Shut.Eye.S01.German.DD20.DL....
Vikings.S05.German.DD+51.DL....
Vikings.S05.German.DD+51.DL....
The.Gifted.S02.GERMAN.DL.108...
The.Gifted.S02.GERMAN.720p.H...

 
 
Donner.ueber.dem.Indischen.Ozean.1966.German.1080p.BluRay.x264-iNKLUSiON

Jahr: 1966
Genre: Abenteuer
Sprache: Deutsch DTS | Englisch DTS
Laufzeit: 1h 34mn
Bitrate: 9 946 Kbps
Format: MKV
Größe: 6.56 GiB
Release:

Beschreibung:

Der Indische Ozean, um 1800: Das britische Empire beherrscht die Weltmeere, sein gefürchteter Kontrahent Napoleon das Festland. Einzig der freche französische Korsar Surcouf nimmt es mit den Briten auf. Mit einer Handvoll tollkühner Burschen macht sich Surcouf daran, die von den Engländern besetzte Insel Mahé anzusteuern. Auf ihr befinden sich französische Geheimpapiere…



Complete name                            : ink-donnerozean-1080p.mkv
Format                                   : Matroska
Format version                           : Version 4 / Version 2
File size                                : 6.56 GiB
Duration                                 : 1h 34mn
Overall bit rate                         : 9 946 Kbps
Encoded date                             : UTC 2018-12-03 22:50:58
Writing application                      : mkvmerge v9.0.1 ('Obstacles') 64bit
Writing library                          : libebml v1.3.3 + libmatroska v1.4.4
DURATION                                 : 01:34:26.027000000
NUMBER_OF_FRAMES                         : 531190
NUMBER_OF_BYTES                          : 1068754280
_STATISTICS_WRITING_APP                  : mkvmerge v9.0.1 ('Obstacles') 64bit
_STATISTICS_WRITING_DATE_UTC             : 2018-12-03 22:50:58
_STATISTICS_TAGS                         : BPS DURATION NUMBER_OF_FRAMES NUMBER_OF_BYTES

Video
ID                                       : 1
Format                                   : AVC
Format/Info                              : Advanced Video Codec
Format profile                           : [email protected]
Format settings, CABAC                   : Yes
Format settings, ReFrames                : 5 frames
Codec ID                                 : V_MPEG4/ISO/AVC
Duration                                 : 1h 34mn
Bit rate                                 : 8 435 Kbps
Width                                    : 1 920 pixels
Height                                   : 824 pixels
Display aspect ratio                     : 2.35:1
Frame rate mode                          : Constant
Frame rate                               : 24.000 fps
Color space                              : YUV
Chroma subsampling                       : 4:2:0
Bit depth                                : 8 bits
Scan type                                : Progressive
Bits/(Pixel*Frame)                       : 0.222
Stream size                              : 5.43 GiB (83%)
Writing library                          : x264 core 157 r2935 545de2f
Encoding settings                        : cabac=1 / ref=5 / deblock=1:-1:-1 / analyse=0x3:0x113 / me=umh / subme=7 / psy=1 / psy_rd=1.00:0.00 / mixed_ref=1 / me_range=16 / chroma_me=1 / trellis=1 / 8x8dct=1 / cqm=0 / deadzone=21,11 / fast_pskip=0 / chroma_qp_offset=-2 / threads=12 / lookahead_threads=2 / sliced_threads=0 / nr=0 / decimate=1 / interlaced=0 / bluray_compat=0 / constrained_intra=0 / bframes=3 / b_pyramid=2 / b_adapt=1 / b_bias=0 / direct=3 / weightb=1 / open_gop=0 / weightp=2 / keyint=250 / keyint_min=24 / scenecut=40 / intra_refresh=0 / rc_lookahead=40 / rc=2pass / mbtree=1 / bitrate=8435 / ratetol=1.0 / qcomp=0.60 / qpmin=0 / qpmax=69 / qpstep=4 / cplxblur=20.0 / qblur=0.5 / ip_ratio=1.40 / aq=1:1.00
Default                                  : Yes
Forced                                   : No

Audio
ID                                       : 2
Format                                   : DTS
Format/Info                              : Digital Theater Systems
Mode                                     : 16
Format settings, Endianness              : Big
Codec ID                                 : A_DTS
Duration                                 : 1h 34mn
Bit rate mode                            : Constant
Bit rate                                 : 1 509 Kbps
Channel(s)                               : 2 channels
Channel positions                        : Front: L R
Sampling rate                            : 48.0 KHz
Bit depth                                : 24 bits
Compression mode                         : Lossy
Stream size                              : 1 019 MiB (15%)
Language                                 : German
Default                                  : No
Forced                                   : No


Download:
Share Online Share OnlineShare OnlineShare Online
 

Kommentare