HD-AREA wünscht Euch eine besinnliche Weihnachtszeit ;)

DNS SERVER AENDERNum der staatlichen Zensur zu umgehen. Sollten wir von eurem Provider geseprrt werden, nutzt den TOR BROWSER oder ändert euren DNS SERVER.

Filmwünsche können bei uns im Forum abgegeben werden

Wir Speichern Nicht




 
 
 
Top Releases
Catch.Me.Tag.2018.MULTI.COMP...
Earthquake.Die.Welt.Am.Abgru...
Earthquake.Die.Welt.Am.Abgru...
Earthquake.Die.Welt.Am.Abgru...
Earthquake.Die.Welt.Am.Abgru...
Paradox.Kill.Zone.Bangkok.20...
I.Tonya.2017.German.AC3.1080...
Deine.Juliet.2018.German.DL....
Ideal.Home.2018.German.DL.10...
Ideal.Home.Ein.Vater.kommt.s...

Cinedubs
Venom.German.DL.AC3.Dubbed.1...
Venom.2018.German.AC3D.5.1.D...
Venom.2018.German.AC3D.5.1.D...
Das.krumme.Haus.2017.GERMAN....
Das.krumme.Haus.2017.GERMAN....
I.Still.See.You.Sie.lassen.d...
I.Still.See.You.Sie.lassen.d...
Braven.2018.German.AC3D.DL.1...
Braven.2018.German.AC3D.DL.7...
Smallfoot.Ein.eisigartiges.A...

Neuerscheinungen 2017-18
Ein.Lied.in.Gottes.Ohr.Germa...
Ein.Lied.in.Gottes.Ohr.Germa...
Meine.teuflisch.gute.Freundi...
Meine.teuflisch.gute.Freundi...
Gans.im.Glueck.2018.DUAL.COM...
Gans.im.Glueck.German.DL.108...
Gans.im.Glueck.German.DL.720...
Fellini.Satyricon.1969.MULTi...
Fellinis.Roma.1972.MULTi.COM...
Fellinis.Casanova.1976.MULTi...

XXX
Bang.Europe.13.XXX.720p.WEBR...
Bang.Europe.13.XXX.1080p.WEB...
Anilos.18.12.01.Emily.Winter...
AussieFellatioQueens.18.11.2...
1000Facials.18.12.03.Lexi.Fo...
AussieFellatioQueens.18.12.0...
BlowBangGirls.18.11.30.Adora...
AllOver30.18.12.03.Lauren.Ph...
BigWetButts.18.12.03.Blanche...
BoxTruckSex.18.12.02.Victori...
AuntJudys.18.12.03.Spying.On...
CherryPimps.18.12.01.Ana.Fox...
BlackIsBetter.18.12.02.Alexa...
BigGulpGirls.18.11.30.Lauren...
AdultAuditions.E265.Sabrina....
BabyGotBoobs.18.12.01.Tiffan...
AuntJudys.18.11.30.Auntie.Ja...
ATKHairy.18.11.30.Bella.Dahl...
Blacked.18.12.01.Riley.Reid....
BackroomCastingCouch.18.12.0...

3D
The.Art.of.Flight.3D.2011.Ge...
The.End.Of.The.World.3D.2010...
The.First.Avenger.Civil.War....
Die.Unglaublichen.2.2018.3D....
Skyscraper.3D.2018.MULTi.COM...
Ant-Man.And.The.Wasp.3D.2018...
Ant.Man.and.the.Wasp.3D.2018...
Die.Unglaublichen.2.3D.2018....
Die.Unglaublichen.2.2018.3D....
Die.Unglaublichen.2.2018.3D....
Sharknado.6.The.Last.One.3D....
Deep.Kleine.Helden.der.Tiefs...
Deep.3D.2017.MULTI.COMPLETE....
Detective.Dee.und.die.Legend...
Detective.Dee.und.die.Legend...

Old_Stuff
Akte.X.S04.German.DTS.DL.108...
Akte.X.S03.German.DTS.DL.108...
Dunkirk.1958.COMPLETE.BLURAY...
Das.Wunder.von.Manhattan.199...
The.Amazing.Spiderman.2.Rise...
Rise.of.the.Predator.2014.Ge...
Detective.Dee.und.das.Geheim...
Detective.Dee.Und.Der.Fluch....
Ghost.Rider.Spirit.of.Vengea...
Species.IV.Das.Erwachen.2007...
Species.IV.Das.Erwachen.2007...
Hotel.Transsilvanien.2012.Ge...
The.Dead.2010.German.DL.1080...
The.Dead.2.India.2013.German...
Britney.Spears.Live.The.Femm...

Filme
The.Gifted.S02.GERMAN.DL.108...
The.Gifted.S02.GERMAN.720p.H...
Vikings.S05.GERMAN.1080p.Web...
Vikings.S05.GERMAN.720p.WebH...
Riverdale.US.S03.GERMAN.DL.1...
Riverdale.US.S03.GERMAN.DL.7...
Shoot.Em.Up.Open.Matte.2006....
Predator.2.1990.German.AC3.D...
Errors.of.the.Human.Body.201...
Welcome.2009.German.AC3D.DL....
Girls.Club.Vorsicht.bissig.2...
The.Way.Of.The.Gun.2000.Germ...
Bog.Das.Ungeheuer.aus.den.Su...
Der.unwiderstehliche.Charme....
Sssssnake.Kobra.1973.German....
Der.Zauber.von.Malena.2000.U...
I.Tonya.2017.German.1080p.DL...
Red.Sniper.-.Die.Todesschuet...
Swedish.Dicks.S02.German.DD2...
Terminator.Salvation.Theatri...
Supergirl.S03D01-4.MULTi.COM...
Scandal.S06.COMPLETE.German....
Scandal.S06.COMPLETE.German....
Arrow.S06.German.DL.1080p.Bl...

 
 
Ein.Lied.in.Gottes.Ohr.German.DL.1080p.BluRay.x264-EmpireHD

Jahr: 2017
Genre: Komödie
Sprache: Deutsch DTS | Französisch DTS
Laufzeit: 1h 29mn
Bitrate: 7 704 Kbps
Format: MKV
Größe: 4.83 GiB
Release:

Beschreibung:

Musikproduzent Nicolas (Fabrice Eboué), der schon lange keinen Erfolg mehr verzeichnen konnte, bekommt einen ungewöhnlichen Auftrag: Er soll eine Band an die Spitze der Charts führen, die aus einem Rabbi, einem Pfarrer und einem Imam besteht. Da ist geistliches Konfliktpotential vorprogrammiert.



Complete name                            : empire-eligo-1080p.mkv
Format                                   : Matroska
Format version                           : Version 2
File size                                : 4.83 GiB
Duration                                 : 1h 29mn
Overall bit rate                         : 7 704 Kbps
Writing application                      : mkvmerge v4.1.1 ('Bouncin' Back') built on Jul  3 2010 22:54:08
Writing library                          : libebml v1.0.0 + libmatroska v1.0

Video
ID                                       : 1
Format                                   : AVC
Format/Info                              : Advanced Video Codec
Format profile                           : [email protected]
Format settings, CABAC                   : Yes
Format settings, ReFrames                : 5 frames
Codec ID                                 : V_MPEG4/ISO/AVC
Duration                                 : 1h 29mn
Bit rate                                 : 4 533 Kbps
Width                                    : 1 920 pixels
Height                                   : 808 pixels
Display aspect ratio                     : 2.40:1
Frame rate mode                          : Constant
Frame rate                               : 24.000 fps
Color space                              : YUV
Chroma subsampling                       : 4:2:0
Bit depth                                : 8 bits
Scan type                                : Progressive
Bits/(Pixel*Frame)                       : 0.122
Stream size                              : 2.84 GiB (59%)
Writing library                          : x264 core 157 r2935 545de2f
Encoding settings                        : cabac=1 / ref=5 / deblock=1:-3:-3 / analyse=0x3:0x133 / me=umh / subme=8 / psy=1 / psy_rd=1.00:0.15 / mixed_ref=1 / me_range=16 / chroma_me=1 / trellis=1 / 8x8dct=1 / cqm=0 / deadzone=21,11 / fast_pskip=0 / chroma_qp_offset=-3 / threads=16 / lookahead_threads=2 / sliced_threads=0 / nr=0 / decimate=1 / interlaced=0 / bluray_compat=0 / constrained_intra=0 / bframes=3 / b_pyramid=2 / b_adapt=1 / b_bias=0 / direct=3 / weightb=1 / open_gop=0 / weightp=2 / keyint=240 / keyint_min=24 / scenecut=40 / intra_refresh=0 / rc_lookahead=40 / rc=crf / mbtree=1 / crf=20.0 / qcomp=0.60 / qpmin=10 / qpmax=69 / qpstep=4 / ip_ratio=1.40 / aq=1:1.00
Language                                 : English
Default                                  : Yes
Forced                                   : No

Audio #1
ID                                       : 2
Format                                   : DTS
Format/Info                              : Digital Theater Systems
Mode                                     : 16
Format settings, Endianness              : Big
Codec ID                                 : A_DTS
Duration                                 : 1h 29mn
Bit rate mode                            : Constant
Bit rate                                 : 1 509 Kbps
Channel(s)                               : 6 channels
Channel positions                        : Front: L C R, Side: L R, LFE
Sampling rate                            : 48.0 KHz
Bit depth                                : 24 bits
Compression mode                         : Lossy
Stream size                              : 969 MiB (20%)
Language                                 : German
Default                                  : Yes
Forced                                   : No

Audio #2
ID                                       : 3
Format                                   : DTS
Format/Info                              : Digital Theater Systems
Mode                                     : 16
Format settings, Endianness              : Big
Codec ID                                 : A_DTS
Duration                                 : 1h 29mn
Bit rate mode                            : Constant
Bit rate                                 : 1 509 Kbps
Channel(s)                               : 6 channels
Channel positions                        : Front: L C R, Side: L R, LFE
Sampling rate                            : 48.0 KHz
Bit depth                                : 24 bits
Compression mode                         : Lossy
Stream size                              : 969 MiB (20%)
Language                                 : French
Default                                  : No
Forced                                   : No

Text
ID                                       : 4
Format                                   : UTF-8
Codec ID                                 : S_TEXT/UTF8
Codec ID/Info                            : UTF-8 Plain Text
Language                                 : German
Default                                  : Yes
Forced                                   : Yes


Download:
Share Online Share OnlineShare OnlineShare Online
 

Kommentare