Filecrypt zeigt vereinzelt Files als "n/a". Die Downloads sind trotzdem komplett.

DNS SERVER AENDERNum der staatlichen Zensur zu umgehen. Sollten wir von eurem Provider geseprrt werden, nutzt den TOR BROWSER oder ändert euren DNS SERVER.

Filmwünsche können bei uns im Forum abgegeben werden

Wir Speichern Nicht




 
 
 
Top Releases
Sicario.2.Soldado.2018.Germa...
Hotel.Artemis.German.DL.720p...
Hotel.Artemis.German.DL.1080...
Dead.in.a.Week.Oder.Geld.zur...
Dead.in.a.Week.Oder.Geld.zur...
Die.Welt.gehoert.dir.2018.Ge...
Die.Welt.gehoert.dir.2018.Ge...
Paradox.Kill.Zone.Bangkok.20...
Paradox.Kill.Zone.Bangkok.20...
Hotel.Artemis.2018.DUAL.COMP...

Cinedubs
Braven.2018.German.AC3D.DL.1...
Braven.2018.German.AC3D.DL.7...
Smallfoot.Ein.eisigartiges.A...
Smallfoot.Ein.eisigartiges.A...
Halloween.German.DL.AC3.Dubb...
Halloween.German.DL.AC3.Dubb...
Freaky.Friday.German.DL.AC3....
Freaky.Friday.German.DL.AC3....
Jupiters.Moon.2017.GERMAN.AC...
Jupiters.Moon.2017.GERMAN.AC...

Neuerscheinungen 2017-18
The.Darkest.Minds.Die.Ueberl...
Battle.2018.German.720p.WEB....
Battle.2018.German.1080p.WEB...
Angelas.Weihnachten.2018.Ger...
Angelas.Weihnachten.2018.Ger...
The.Mermaid.Lake.of.the.Dead...
The.Mermaid.Lake.of.the.Dead...
Ouija.Seance.The.Final.Game....
Ouija.Seance.The.Final.Game....
Reprisal.Nimm.Dir.was.Dir.ge...

XXX
HotAndMean.18.11.25.Maserati...
LANewGirl.18.11.18.Carmen.2....
LethalHardcore.Cross.Eyed.Co...
LaurenPhillips.15.05.13.Red....
KarupsPC.18.11.24.Shona.Rive...
MatureNL.18.10.12.Ellen.B.An...
Hitzefrei.18.09.10.Jolee.Lov...
LaurenPhillips.15.07.18.Teas...
MatureNL.18.10.19.Elen.Milli...
JapanHDV.18.11.26.Mayo.Kurod...
KarupsHA.18.11.26.Violet.Vix...
Hitzefrei.18.09.05.Marie.Sky...
LaurenPhillips.15.07.08.Happ...
MatureNL.18.10.05.Alexa.Blun...
Killergram.18.11.24.Kittina....
Hitzefrei.18.09.07.LadyKinky...
LaurenPhillips.15.06.09.Lelo...
Hitzefrei.18.09.14.Bonny.Dev...
LANewGirl.18.11.17.Carmen.2....
LaurenPhillips.15.06.23.Carm...

3D
The.Art.of.Flight.3D.2011.Ge...
The.End.Of.The.World.3D.2010...
The.First.Avenger.Civil.War....
Die.Unglaublichen.2.2018.3D....
Skyscraper.3D.2018.MULTi.COM...
Ant-Man.And.The.Wasp.3D.2018...
Ant.Man.and.the.Wasp.3D.2018...
Die.Unglaublichen.2.3D.2018....
Die.Unglaublichen.2.2018.3D....
Die.Unglaublichen.2.2018.3D....
Sharknado.6.The.Last.One.3D....
Deep.Kleine.Helden.der.Tiefs...
Deep.3D.2017.MULTI.COMPLETE....
Detective.Dee.und.die.Legend...
Detective.Dee.und.die.Legend...

Old_Stuff
Akte.X.S03.German.DTS.DL.108...
Dunkirk.1958.COMPLETE.BLURAY...
Das.Wunder.von.Manhattan.199...
The.Amazing.Spiderman.2.Rise...
Rise.of.the.Predator.2014.Ge...
Detective.Dee.und.das.Geheim...
Detective.Dee.Und.Der.Fluch....
Ghost.Rider.Spirit.of.Vengea...
Species.IV.Das.Erwachen.2007...
Species.IV.Das.Erwachen.2007...
Hotel.Transsilvanien.2012.Ge...
The.Dead.2010.German.DL.1080...
The.Dead.2.India.2013.German...
Britney.Spears.Live.The.Femm...
Buffy.The.Vampire.Slayer.199...

Filme
Brawl.in.Cell.Block.99.2017....
Papillon.2017.German.DTS.DL....
Papillon.2017.German.DTS.DL....
Quarantaene.2008.German.AC3....
Glueck.im.Hinterhaus.1980.Ge...
Meg.2018.German.DL.720p.BluR...
Meg.2018.German.DL.1080p.Blu...
Bound.-.Gefesselt.1996.Signa...
Die.Farbe.des.Horizonts.2018...
Assassination.2015.German.DT...
The.Idealist.Geheimakte.Groe...
Three.Night.Stand.Urlaub.bei...
Ass.Backwards.Die.Schoensten...
Asphaltrennen.1971.GERMAN.DU...
Arthur.und.die.Minimoys.2.Di...
Arthur.2011.German.DL.1080p....
The.Expanse.S02D01-3.MULTi.C...
Arsene.Lupin.der.Millionendi...
Hangover.3.2013.German.AC3D....
Arthur.1981.German.DL.1080p....
Killjoys.S04.German.DD51.Dub...
Killjoys.S04.German.DD51.Dub...
The.Walking.Dead.S08D1-3.UNC...
Marvels.Agents.of.S.H.I.E.L....

 
 
Papillon.2017.German.DTS.DL.720p.BluRay.x264-MULTiPLEX

Jahr: 2017
Genre: Crime, Drama
Sprache: Deutsch DTS | Englisch DTS
Laufzeit: 2h 13mn
Bitrate: 7 275 Kbps
Format: MKV
Größe: 6.79 GiB
Release:

Beschreibung:
Henri „Papillon“ Charrière (Charlie Hunnam) wird im Frankreich der 30er Jahre zu Unrecht wegen Mordes verurteilt und muss seine lebenslange Haftstrafe in der berüchtigten Strafkolonie St. Laurent in Französisch-Guayana verbüßen. Auf dem Weg dorthin begegnet Papillon dem seltsamen Louis Dega (Rami Malek), einem verurteilten Fälscher. Nachdem er ihn vor einem Angriff anderer Häftlinge verteidigen konnte, treffen sie eine Vereinbarung: Dega steht fortan unter Papillons Schutz, im Gegenzug finanziert Dega Papillons Fluchtversuche. Im Laufe der Zeit entwickelt sich zwischen den beiden Männern eine tiefe Freundschaft, die ihnen hilft, den schweren Arbeitsdienst und die sadistische Behandlung der Wärter zu überleben und die ihnen immer wieder die Kraft gibt, nicht aufzugeben…


Complete name                            : mp-papillon-720p.mkv
Format                                   : Matroska
Format version                           : Version 4 / Version 2
File size                                : 6.79 GiB
Duration                                 : 2h 13mn
Overall bit rate                         : 7 275 Kbps
Encoded date                             : UTC 2018-11-30 07:01:52
Writing application                      : mkvmerge v8.3.0 ('Over the Horizon') 64bit
Writing library                          : libebml v1.3.1 + libmatroska v1.4.2
DURATION                                 : 02:12:18.550000000
NUMBER_OF_FRAMES                         : 1043
NUMBER_OF_BYTES                          : 1970130
_STATISTICS_WRITING_APP                  : mkvmerge v8.3.0 ('Over the Horizon') 64bit
_STATISTICS_WRITING_DATE_UTC             : 2018-11-30 07:01:52
_STATISTICS_TAGS                         : BPS DURATION NUMBER_OF_FRAMES NUMBER_OF_BYTES

Video
ID                                       : 1
Format                                   : AVC
Format/Info                              : Advanced Video Codec
Format profile                           : [email protected]
Format settings, CABAC                   : Yes
Format settings, ReFrames                : 5 frames
Codec ID                                 : V_MPEG4/ISO/AVC
Duration                                 : 2h 13mn
Bit rate                                 : 4 112 Kbps
Width                                    : 1 280 pixels
Height                                   : 536 pixels
Display aspect ratio                     : 2.40:1
Frame rate mode                          : Constant
Frame rate                               : 24.000 fps
Color space                              : YUV
Chroma subsampling                       : 4:2:0
Bit depth                                : 8 bits
Scan type                                : Progressive
Bits/(Pixel*Frame)                       : 0.250
Stream size                              : 3.84 GiB (57%)
Writing library                          : x264 core 157 r2935 545de2f
Encoding settings                        : cabac=1 / ref=5 / deblock=1:-3:-3 / analyse=0x3:0x113 / me=umh / subme=11 / psy=1 / psy_rd=1.00:0.15 / mixed_ref=1 / me_range=16 / chroma_me=1 / trellis=2 / 8x8dct=1 / cqm=0 / deadzone=21,11 / fast_pskip=0 / chroma_qp_offset=-3 / threads=80 / lookahead_threads=4 / sliced_threads=0 / nr=0 / decimate=1 / interlaced=0 / bluray_compat=0 / constrained_intra=0 / bframes=5 / b_pyramid=2 / b_adapt=2 / b_bias=0 / direct=3 / weightb=1 / open_gop=0 / weightp=2 / keyint=250 / keyint_min=24 / scenecut=40 / intra_refresh=0 / rc_lookahead=40 / rc=crf / mbtree=1 / crf=16.0 / qcomp=0.60 / qpmin=10 / qpmax=69 / qpstep=4 / ip_ratio=1.40 / aq=1:1.00
Language                                 : English
Default                                  : Yes
Forced                                   : No
DURATION                                 : 02:13:32.625000000
NUMBER_OF_FRAMES                         : 192303
NUMBER_OF_BYTES                          : 4259159995
_STATISTICS_WRITING_APP                  : mkvmerge v8.3.0 ('Over the Horizon') 64bit
_STATISTICS_WRITING_DATE_UTC             : 2018-11-30 07:01:52
_STATISTICS_TAGS                         : BPS DURATION NUMBER_OF_FRAMES NUMBER_OF_BYTES

Audio #1
ID                                       : 2
Format                                   : DTS
Format/Info                              : Digital Theater Systems
Mode                                     : 16
Format settings, Endianness              : Big
Codec ID                                 : A_DTS
Duration                                 : 2h 13mn
Bit rate mode                            : Constant
Bit rate                                 : 1 509 Kbps
Channel(s)                               : 6 channels
Channel positions                        : Front: L C R, Side: L R, LFE
Sampling rate                            : 48.0 KHz
Bit depth                                : 24 bits
Compression mode                         : Lossy
Stream size                              : 1.41 GiB (21%)
Language                                 : German
Default                                  : Yes
Forced                                   : Yes

Audio #2
ID                                       : 3
Format                                   : DTS
Format/Info                              : Digital Theater Systems
Mode                                     : 16
Format settings, Endianness              : Big
Codec ID                                 : A_DTS
Duration                                 : 2h 13mn
Bit rate mode                            : Constant
Bit rate                                 : 1 509 Kbps
Channel(s)                               : 6 channels
Channel positions                        : Front: L C R, Side: L R, LFE
Sampling rate                            : 48.0 KHz
Bit depth                                : 24 bits
Compression mode                         : Lossy
Stream size                              : 1.41 GiB (21%)
Language                                 : English
Default                                  : No
Forced                                   : No

Text #1
ID                                       : 4
Format                                   : UTF-8
Codec ID                                 : S_TEXT/UTF8
Codec ID/Info                            : UTF-8 Plain Text
Title                                    : ger forced
Language                                 : German
Default                                  : Yes
Forced                                   : Yes

Text #2
ID                                       : 5
Format                                   : VobSub
Muxing mode                              : zlib
Codec ID                                 : S_VOBSUB
Codec ID/Info                            : The same subtitle format used on DVDs
Title                                    : ger regular sdh
Language                                 : German
Default                                  : No
Forced                                   : No


Download:
Share Online Share OnlineShare OnlineShare Online
 

Kommentare