Filecrypt zeigt vereinzelt Files als "n/a". Die Downloads sind trotzdem komplett.

DNS SERVER AENDERNum der staatlichen Zensur zu umgehen. Sollten wir von eurem Provider geseprrt werden, nutzt den TOR BROWSER oder ändert euren DNS SERVER.

Filmwünsche können bei uns im Forum abgegeben werden

Wir Speichern Nicht




 
 
 
Top Releases
Sicario.2.Soldado.2018.Germa...
Hotel.Artemis.German.DL.720p...
Hotel.Artemis.German.DL.1080...
Dead.in.a.Week.Oder.Geld.zur...
Dead.in.a.Week.Oder.Geld.zur...
Die.Welt.gehoert.dir.2018.Ge...
Die.Welt.gehoert.dir.2018.Ge...
Paradox.Kill.Zone.Bangkok.20...
Paradox.Kill.Zone.Bangkok.20...
Hotel.Artemis.2018.DUAL.COMP...

Cinedubs
Braven.2018.German.AC3D.DL.1...
Braven.2018.German.AC3D.DL.7...
Smallfoot.Ein.eisigartiges.A...
Smallfoot.Ein.eisigartiges.A...
Halloween.German.DL.AC3.Dubb...
Halloween.German.DL.AC3.Dubb...
Freaky.Friday.German.DL.AC3....
Freaky.Friday.German.DL.AC3....
Jupiters.Moon.2017.GERMAN.AC...
Jupiters.Moon.2017.GERMAN.AC...

Neuerscheinungen 2017-18
The.Darkest.Minds.Die.Ueberl...
Battle.2018.German.720p.WEB....
Battle.2018.German.1080p.WEB...
Angelas.Weihnachten.2018.Ger...
Angelas.Weihnachten.2018.Ger...
The.Mermaid.Lake.of.the.Dead...
The.Mermaid.Lake.of.the.Dead...
Ouija.Seance.The.Final.Game....
Ouija.Seance.The.Final.Game....
Reprisal.Nimm.Dir.was.Dir.ge...

XXX
HotAndMean.18.11.25.Maserati...
LANewGirl.18.11.18.Carmen.2....
LethalHardcore.Cross.Eyed.Co...
LaurenPhillips.15.05.13.Red....
KarupsPC.18.11.24.Shona.Rive...
MatureNL.18.10.12.Ellen.B.An...
Hitzefrei.18.09.10.Jolee.Lov...
LaurenPhillips.15.07.18.Teas...
MatureNL.18.10.19.Elen.Milli...
JapanHDV.18.11.26.Mayo.Kurod...
KarupsHA.18.11.26.Violet.Vix...
Hitzefrei.18.09.05.Marie.Sky...
LaurenPhillips.15.07.08.Happ...
MatureNL.18.10.05.Alexa.Blun...
Killergram.18.11.24.Kittina....
Hitzefrei.18.09.07.LadyKinky...
LaurenPhillips.15.06.09.Lelo...
Hitzefrei.18.09.14.Bonny.Dev...
LANewGirl.18.11.17.Carmen.2....
LaurenPhillips.15.06.23.Carm...

3D
The.Art.of.Flight.3D.2011.Ge...
The.End.Of.The.World.3D.2010...
The.First.Avenger.Civil.War....
Die.Unglaublichen.2.2018.3D....
Skyscraper.3D.2018.MULTi.COM...
Ant-Man.And.The.Wasp.3D.2018...
Ant.Man.and.the.Wasp.3D.2018...
Die.Unglaublichen.2.3D.2018....
Die.Unglaublichen.2.2018.3D....
Die.Unglaublichen.2.2018.3D....
Sharknado.6.The.Last.One.3D....
Deep.Kleine.Helden.der.Tiefs...
Deep.3D.2017.MULTI.COMPLETE....
Detective.Dee.und.die.Legend...
Detective.Dee.und.die.Legend...

Old_Stuff
Akte.X.S03.German.DTS.DL.108...
Dunkirk.1958.COMPLETE.BLURAY...
Das.Wunder.von.Manhattan.199...
The.Amazing.Spiderman.2.Rise...
Rise.of.the.Predator.2014.Ge...
Detective.Dee.und.das.Geheim...
Detective.Dee.Und.Der.Fluch....
Ghost.Rider.Spirit.of.Vengea...
Species.IV.Das.Erwachen.2007...
Species.IV.Das.Erwachen.2007...
Hotel.Transsilvanien.2012.Ge...
The.Dead.2010.German.DL.1080...
The.Dead.2.India.2013.German...
Britney.Spears.Live.The.Femm...
Buffy.The.Vampire.Slayer.199...

Filme
Brawl.in.Cell.Block.99.2017....
Papillon.2017.German.DTS.DL....
Papillon.2017.German.DTS.DL....
Quarantaene.2008.German.AC3....
Glueck.im.Hinterhaus.1980.Ge...
Meg.2018.German.DL.720p.BluR...
Meg.2018.German.DL.1080p.Blu...
Bound.-.Gefesselt.1996.Signa...
Die.Farbe.des.Horizonts.2018...
Assassination.2015.German.DT...
The.Idealist.Geheimakte.Groe...
Three.Night.Stand.Urlaub.bei...
Ass.Backwards.Die.Schoensten...
Asphaltrennen.1971.GERMAN.DU...
Arthur.und.die.Minimoys.2.Di...
Arthur.2011.German.DL.1080p....
The.Expanse.S02D01-3.MULTi.C...
Arsene.Lupin.der.Millionendi...
Hangover.3.2013.German.AC3D....
Arthur.1981.German.DL.1080p....
Killjoys.S04.German.DD51.Dub...
Killjoys.S04.German.DD51.Dub...
The.Walking.Dead.S08D1-3.UNC...
Marvels.Agents.of.S.H.I.E.L....

 
 
Ouija.Seance.The.Final.Game.2018.GERMAN.DL.1080p.BluRay.x264-UNiVERSUM

Jahr: 2018
Genre: Horror
Sprache: Deutsch DTS | Englisch DTS
Laufzeit: 1h 24mn
Bitrate: 6 365 Kbps
Format: MKV
Größe: 3.77 GiB
Release:

Beschreibung:

Die US-Studentin Sarah (Katharina) studiert in Italien und will kurz vor dem Ende ihres Studiums mit ihren Freunden Barbara, Guillaume und Rico ein paar entspannende Tage in einer abgelegenen Villa verbringen, die Sie von ihrer Großmutter mütterlicherseits geerbt hat. Die einsam gelegene, wunderschöne, alte Villa steht fernab jeglicher Großstadt mitten in der Natur. Kaum im Haus angekommen, entdecken sie auf dem Dachboden ein uraltes Ouija-Brett. und können der Versuchung nicht widerstehen, die Geister ihrer Vorfahren damit anzurufen. Doch anstelle eine Verbindung in Jenseits zu bekommen, wecken sie eine uralte dämonische Kraft, die mit den verborgenen Geheimnissen der Villa verbunden war. Um den heraufbeschworenen Dämon wieder zurück in seine Hölle zu schicken, müssen die Freunde sich nun ihren dunkelsten Ängsten und Albträumen stellen.



Complete name                            : ouija.seance.the.final.game.2018.german.dl.1080p.bluray.x264-universum.mkv
Format                                   : Matroska
Format version                           : Version 4 / Version 2
File size                                : 3.77 GiB
Duration                                 : 1h 24mn
Overall bit rate                         : 6 365 Kbps
Encoded date                             : UTC 2018-11-30 21:23:52
Writing application                      : mkvmerge v7.9.0 ('Birds') 64bit
Writing library                          : libebml v1.3.1 + libmatroska v1.4.2
DURATION                                 : 01:24:50.987000000
NUMBER_OF_FRAMES                         : 477280
NUMBER_OF_BYTES                          : 960287360
_STATISTICS_WRITING_APP                  : mkvmerge v7.9.0 ('Birds') 64bit
_STATISTICS_WRITING_DATE_UTC             : 2018-11-30 21:23:52
_STATISTICS_TAGS                         : BPS DURATION NUMBER_OF_FRAMES NUMBER_OF_BYTES

Video
ID                                       : 1
Format                                   : AVC
Format/Info                              : Advanced Video Codec
Format profile                           : [email protected]
Format settings, CABAC                   : Yes
Format settings, ReFrames                : 5 frames
Codec ID                                 : V_MPEG4/ISO/AVC
Duration                                 : 1h 24mn
Bit rate                                 : 3 221 Kbps
Width                                    : 1 920 pixels
Height                                   : 808 pixels
Display aspect ratio                     : 2.40:1
Frame rate mode                          : Constant
Frame rate                               : 24.000 fps
Color space                              : YUV
Chroma subsampling                       : 4:2:0
Bit depth                                : 8 bits
Scan type                                : Progressive
Bits/(Pixel*Frame)                       : 0.087
Stream size                              : 1.91 GiB (51%)
Writing library                          : x264 core 157 r2935 545de2f
Encoding settings                        : cabac=1 / ref=5 / deblock=1:-1:-1 / analyse=0x3:0x133 / me=umh / subme=8 / psy=1 / psy_rd=1.00:0.15 / mixed_ref=1 / me_range=16 / chroma_me=1 / trellis=2 / 8x8dct=1 / cqm=0 / deadzone=21,11 / fast_pskip=0 / chroma_qp_offset=-3 / threads=18 / lookahead_threads=3 / sliced_threads=0 / nr=0 / decimate=1 / interlaced=0 / bluray_compat=0 / constrained_intra=0 / bframes=3 / b_pyramid=2 / b_adapt=1 / b_bias=0 / direct=3 / weightb=1 / open_gop=0 / weightp=2 / keyint=250 / keyint_min=24 / scenecut=40 / intra_refresh=0 / rc_lookahead=40 / rc=crf / mbtree=1 / crf=20.0 / qcomp=0.60 / qpmin=10 / qpmax=69 / qpstep=4 / ip_ratio=1.40 / aq=1:1.00
Language                                 : German
Default                                  : Yes
Forced                                   : No
DURATION                                 : 01:24:51.375000000
NUMBER_OF_FRAMES                         : 122193
NUMBER_OF_BYTES                          : 2128576895
_STATISTICS_WRITING_APP                  : mkvmerge v7.9.0 ('Birds') 64bit
_STATISTICS_WRITING_DATE_UTC             : 2018-11-30 21:23:52
_STATISTICS_TAGS                         : BPS DURATION NUMBER_OF_FRAMES NUMBER_OF_BYTES

Audio #1
ID                                       : 2
Format                                   : DTS
Format/Info                              : Digital Theater Systems
Mode                                     : 16
Format settings, Endianness              : Big
Codec ID                                 : A_DTS
Duration                                 : 1h 24mn
Bit rate mode                            : Constant
Bit rate                                 : 1 509 Kbps
Channel(s)                               : 6 channels
Channel positions                        : Front: L C R, Side: L R, LFE
Sampling rate                            : 48.0 KHz
Bit depth                                : 24 bits
Compression mode                         : Lossy
Stream size                              : 916 MiB (24%)
Title                                    : DTS
Language                                 : German
Default                                  : Yes
Forced                                   : No

Audio #2
ID                                       : 3
Format                                   : DTS
Format/Info                              : Digital Theater Systems
Mode                                     : 16
Format settings, Endianness              : Big
Codec ID                                 : A_DTS
Duration                                 : 1h 24mn
Bit rate mode                            : Constant
Bit rate                                 : 1 509 Kbps
Channel(s)                               : 6 channels
Channel positions                        : Front: L C R, Side: L R, LFE
Sampling rate                            : 48.0 KHz
Bit depth                                : 24 bits
Compression mode                         : Lossy
Stream size                              : 916 MiB (24%)
Title                                    : DTS
Language                                 : German
Default                                  : No
Forced                                   : No


Download:
Share Online Share OnlineShare OnlineShare Online
 

Kommentare