Filecrypt zeigt vereinzelt Files als "n/a". Die Downloads sind trotzdem komplett.

DNS SERVER AENDERNum der staatlichen Zensur zu umgehen. Sollten wir von eurem Provider geseprrt werden, nutzt den TOR BROWSER oder ändert euren DNS SERVER.

Filmwünsche können bei uns im Forum abgegeben werden

Wir Speichern Nicht




 
 
 
Top Releases
Feinde.Hostiles.2017.DUAL.CO...
The.Miracle.Season.Ihr.groes...
The.Miracle.Season.Ihr.groes...
The.Miracle.Season.Ihr.groes...
Le.Jeu.Nichts.zu.verbergen.2...
Le.Jeu.Nichts.zu.verbergen.2...
Cam.2018.German.DL.1080p.WEB...
Cam.2018.German.DL.720p.WEB....
Teen.Titans.Go.To.the.Movies...
The.Ballad.of.Buster.Scruggs...

Cinedubs
Christopher.Robin.German.DL....
Christopher.Robin.German.DL....
A.Star.Is.Born.German.DL.AC3...
A.Star.Is.Born.German.DL.AC3...
Mission.Impossible.Fallout.G...
Mission.Impossible.Fallout.G...
Sicario.2.2018.German.DL.AC3...
Juliet.Naked.2018.GERMAN.DL....
Juliet.Naked.2018.GERMAN.DL....
10x10.2018.German.AC3D.DL.10...

Neuerscheinungen 2017-18
Devils.Gate.Pforte.zur.Hoell...
Devils.Gate.Pforte.zur.Hoell...
Beautiful.People.2014.German...
Immortal.Wars.Nur.der.Staerk...
Beautiful.People.2014.DUAL.C...
Devils.Gate.Pforte.zur.Hoell...
Night.Of.The.Demons.1988.DUA...
Africa.Addio.1966.DUAL.COMPL...
In.Darkness.2018.MULTI.COMPL...
Boarding.School.2018.COMPLET...

XXX
NetVideoGirls.18.10.23.Janey...
NHLPCentral.18.06.21.Brook.L...
LustyGrandmas.18.03.22.Marsh...
POVPornstars.18.10.30.Lila.M...
POVLife.18.10.29.Skylar.Vale...
NetGirl.18.10.17.Gemma.And.A...
NewSensations.18.10.29.Angel...
Nubiles.18.10.29.Cleo.Mijare...
OldYoungLesbianLove.18.10.29...
NHLPCentral.18.06.14.Honour....
NubileFilms.18.10.29.Riley.S...
LustyGrandmas.18.04.02.Sila....
PlayboyPlus.18.10.29.Jenessa...
Old-n-Young.18.10.27.Blue.Sk...
NewSensations.18.10.31.Emily...
OnlyBlowJob.18.10.04.Rose.XX...
PlayboyPlus.18.10.28.Playmat...
LustyGrandmas.18.04.08.Viol....
PixAndVideo.18.10.29.Marica....
Passion-HD.18.10.31.Megan.Wi...

3D
Die.Unglaublichen.2.2018.3D....
Skyscraper.3D.2018.MULTi.COM...
Ant-Man.And.The.Wasp.3D.2018...
Ant.Man.and.the.Wasp.3D.2018...
Die.Unglaublichen.2.3D.2018....
Die.Unglaublichen.2.2018.3D....
Die.Unglaublichen.2.2018.3D....
Sharknado.6.The.Last.One.3D....
Deep.Kleine.Helden.der.Tiefs...
Deep.3D.2017.MULTI.COMPLETE....
Detective.Dee.und.die.Legend...
Detective.Dee.und.die.Legend...
Skyscraper.3D.German.DL.AC3....
Ant-Man.and.the.Wasp.2018.3D...
Jurassic.World.Das.gefallene...

Old_Stuff
Detective.Dee.und.das.Geheim...
Detective.Dee.Und.Der.Fluch....
Ghost.Rider.Spirit.of.Vengea...
Species.IV.Das.Erwachen.2007...
Species.IV.Das.Erwachen.2007...
Hotel.Transsilvanien.2012.Ge...
The.Dead.2010.German.DL.1080...
The.Dead.2.India.2013.German...
Britney.Spears.Live.The.Femm...
Buffy.The.Vampire.Slayer.199...
IMAX.Ride.Around.The.World.2...
Schimanski.-.Duisburg.Ruhror...
Akte.X.S02.German.DTS.DL.108...
How.I.Met.Your.Mother.S02.Ge...
Akte.X.S01.German.DTS.DL.108...

Filme
Die.Reise.zur.geheimnisvolle...
The.Kominsky.Method.S01.COMP...
The.Kominsky.Method.S01.COMP...
Dr.Seltsam.Oder.wie.ich.lern...
Shut.Eye.S01.German.DD20.DL....
Shut.Eye.S01.German.DD20.DL....
Feet.2008.German.AC3D.DL.108...
Mission.Impossible.Fallout.2...
iZombie.S04.German.DD51.Dubb...
iZombie.S04.German.DD51.Dubb...
Night.Of.The.Demons.GERMAN.1...
Arrow.S06.GERMAN.DL.1080p.HD...
Arrow.S06.GERMAN.DL.720p.HDT...
Night.Of.The.Demons.GERMAN.1...
Cloverfield.2008.German.DL.1...
Willy.Wonka.und.die.Schokola...
Krypton.S01.German.DD51.Dubb...
Krypton.S01.GERMAN.DUBBED.72...
Humans.S03.German.DD20.Dubbe...
Humans.S03.GERMAN.DL.720p.HD...
4.Blocks.S02.GERMAN.1080p.HD...
4.Blocks.S02.GERMAN.720p.HDT...
You.Me.and.Dupree.-.Ich.Du.u...
Spider-Man.3.2007.UHD2BD.7.1...

 
 
Shut.Eye.S01.German.DD20.DL.Dubbed.1080p.WEB.DL.h264-GDR

Jahr: 2016
Genre: Krimi | Drama | Fantasy
Sprache: Deutsch AC3 | Englisch AC3
Laufzeit: 44min je Folge
Bitrate: 4800 Kbps
Format: MKV
Größe: 1,7 GB je Folge
Release:

Beschreibung:

In der Stadt der Engel sind viele Menschen tätig, die Behaupten mit Geistern reden zu können oder übernatürliche Kräfte haben wollen. Viele - wenn nicht sogar alle von ihnen - sind Scharlatane. Einer von ihnen hat nun genug von dem falschen Spiel und dem unehrlichen Geschäft mit dem Paranormalen, muss aber seine Weltsicht neu sortieren, als er plötzlich von Visionen heimgesucht wird. Doch sind diese für bare Münze zu nehmen? ​

 

enthaltene Folgen:

Shut.Eye.S01E01.Der.Tod.German.DD20.DL.Dubbed.1080p.WEB.DL.h264.GDR NEU

Shut.Eye.S01E02.Der.Gehaengte.German.DD20.DL.Dubbed.1080p.WEB.DL.h264.GDR NEU



General
Complete name                            : Shut.Eye.S01E01.Der.Tod.German.DD20.DL.Dubbed.1080p.WEB.DL.h264.GDR.mkv
Format                                   : Matroska
Format version                           : Version 4 / Version 2
File size                                : 1.72 GiB
Duration                                 : 44mn 25s
Overall bit rate                         : 5 555 Kbps
Encoded date                             : UTC 2018-11-15 22:53:52
Writing application                      : mkvmerge v23.0.0 ('The Bride Said No') 64-bit
Writing library                          : libebml v1.3.6 + libmatroska v1.4.9
DURATION                                 : 00:44:25.536000000
NUMBER_OF_FRAMES                         : 83298
NUMBER_OF_BYTES                          : 127945728
_STATISTICS_WRITING_APP                  : mkvmerge v23.0.0 ('The Bride Said No') 64-bit
_STATISTICS_WRITING_DATE_UTC             : 2018-11-15 22:53:52
_STATISTICS_TAGS                         : BPS DURATION NUMBER_OF_FRAMES NUMBER_OF_BYTES

Video
ID                                       : 1
Format                                   : AVC
Format/Info                              : Advanced Video Codec
Format profile                           : [email protected]
Format settings, CABAC                   : Yes
Format settings, ReFrames                : 4 frames
Codec ID                                 : V_MPEG4/ISO/AVC
Duration                                 : 44mn 25s
Bit rate                                 : 4 868 Kbps
Width                                    : 1 920 pixels
Height                                   : 1 080 pixels
Display aspect ratio                     : 16:9
Frame rate mode                          : Constant
Frame rate                               : 25.000 fps
Color space                              : YUV
Chroma subsampling                       : 4:2:0
Bit depth                                : 8 bits
Scan type                                : Progressive
Bits/(Pixel*Frame)                       : 0.094
Stream size                              : 1.51 GiB (88%)
Language                                 : German
Default                                  : Yes
Forced                                   : No

Audio #1
ID                                       : 2
Format                                   : AC-3
Format/Info                              : Audio Coding 3
Mode extension                           : CM (complete main)
Format settings, Endianness              : Big
Codec ID                                 : A_AC3
Duration                                 : 44mn 25s
Bit rate mode                            : Constant
Bit rate                                 : 192 Kbps
Channel(s)                               : 2 channels
Channel positions                        : Front: L R
Sampling rate                            : 48.0 KHz
Bit depth                                : 16 bits
Compression mode                         : Lossy
Stream size                              : 61.0 MiB (3%)
Language                                 : German
Default                                  : Yes
Forced                                   : No

Audio #2
ID                                       : 3
Format                                   : AC-3
Format/Info                              : Audio Coding 3
Mode extension                           : CM (complete main)
Format settings, Endianness              : Big
Codec ID                                 : A_AC3
Duration                                 : 44mn 25s
Bit rate mode                            : Constant
Bit rate                                 : 384 Kbps
Channel(s)                               : 6 channels
Channel positions                        : Front: L C R, Side: L R, LFE
Sampling rate                            : 48.0 KHz
Bit depth                                : 16 bits
Compression mode                         : Lossy
Stream size                              : 122 MiB (7%)
Language                                 : English
Default                                  : No
Forced                                   : No



Download:
Share-Online.biz Share-Online.bizShare-Online.bizShare-Online.biz | Rapidgator.net Rapidgator.netRapidgator.netRapidgator.net
 

Kommentare